Rapidshare Download Forum  

Go Back   Rapidshare Download Forum > Rapidshare forums > Rapidshare Downloads > Movies
Register Blog Social Groups Calendar Mark Forums Read

Post New Thread  Reply
 
LinkBack Thread Tools Display Modes
Old 12th September 2012, 18:03   #1 (permalink)
V.I.P Member
 
Join Date: Jun 2011
Posts: 3,969
Exclamation Vile (2011) DVDRip XviD-PRiMOR

Vile (2011) DVDRip XviD-PRiMOR Free download on Rapidshare Megaupload RapidGator Hotfile Oron Filesonic Wupload & Fileserve. Vile (2011) DVDRip XviD-PRiMOR Torrent


Vile (2011) DVDRip XviD-PRiMOR
File Size: 700 MiB




Code:

General
Complete name                  : vile-primor.avi
Format                         : AVI
Format/Info                    : Audio Video Interleave
File size                      : 700 MiB
Duration                       : 1h 27mn
Overall bit rate mode          : Variable
Overall bit rate               : 1 114 Kbps
Writing application            : VirtualDubMod 1.5.10.2 (build 2540/release)
Writing library                : VirtualDubMod build 2540/release

Video
ID                             : 0
Format                         : MPEG-4 Visual
Format profile                 : Simple@L3
Format settings, BVOP          : 2
Format settings, QPel          : No
Format settings, GMC           : No warppoints
Format settings, Matrix        : Default (H.263)
Muxing mode                    : Packed bitstream
Codec ID                       : XVID
Codec ID/Hint                  : XviD
Duration                       : 1h 27mn
Bit rate                       : 981 Kbps
Width                          : 640 pixels
Height                         : 352 pixels
Display aspect ratio           : 16:9
Frame rate                     : 23.976 fps
Color space                    : YUV
Chroma subsampling             : 4:2:0
Bit depth                      : 8 bits
Scan type                      : Progressive
Compression mode               : Lossy
Bits/(Pixel*Frame)             : 0.182
Stream size                    : 616 MiB (88%)
Writing library                : XviD 1.0.3 (UTC 2004-12-20)

Audio
ID                             : 1
Format                         : MPEG Audio
Format version                 : Version 1
Format profile                 : Layer 3
Mode                           : Joint stereo
Mode extension                 : MS Stereo
Codec ID                       : 55
Codec ID/Hint                  : MP3
Duration                       : 1h 27mn
Bit rate mode                  : Variable
Bit rate                       : 120 Kbps
Nominal bit rate               : 128 Kbps
Channel(s)                     : 2 channels
Sampling rate                  : 48.0 KHz
Compression mode               : Lossy
Stream size                    : 75.6 MiB (11%)
Alignment                      : Aligned on interleaves
Interleave, duration           : 24 ms (0.58 video frame)
Interleave, preload duration   : 371 ms
Writing library                : LAME3.98r
Encoding settings              : -m j -V 4 -q 2 -lowpass 17 --abr 128
Code:
http://www.imdb.com/title/tt1711018/


DOWNLOAD:
Code:
http://rapidgator.net/file/3ecbf785b17516426d78b1089e8bbefe/datei9zHHU1e04W/Vile.2011.DVDRip.PRiMOR.part1.rar.htm
http://rapidgator.net/file/3ecbf785b17516426d78b1089e8bbefe/datei8w0sPlr5dC/Vile.2011.DVDRip.PRiMOR.part2.rar.htm
http://rapidgator.net/file/3ecbf785b17516426d78b1089e8bbefe/datei0addZMzxpq/Vile.2011.DVDRip.PRiMOR.part3.rar.htm

http://rapidgator.net/file/41460582/Vile.2011.DVDRip.PRiMOR.part1.rar.html
http://rapidgator.net/file/41461191/Vile.2011.DVDRip.PRiMOR.part2.rar.html
http://rapidgator.net/file/41461478/Vile.2011.DVDRip.PRiMOR.part3.rar.html

http://extabit.com/file/2cq2814zem83g/Vile.2011.DVDRip.PRiMOR.part1.rar
http://extabit.com/file/2cq2814zemeik/Vile.2011.DVDRip.PRiMOR.part2.rar
http://extabit.com/file/2cq2814zdzkrw/Vile.2011.DVDRip.PRiMOR.part3.rar

http://rapidgator.net/file/3ecbf785b17516426d78b1089e8bbefe/2690403528/Vile.2011.DVDRip.PRiMOR.part1.rar
http://rapidgator.net/file/3ecbf785b17516426d78b1089e8bbefe/4202166573/Vile.2011.DVDRip.PRiMOR.part2.rar
http://rapidgator.net/file/3ecbf785b17516426d78b1089e8bbefe/2097774211/Vile.2011.DVDRip.PRiMOR.part3.rar
DOWNLOAD SINGL LINKS:
Code:
http://rapidgator.net/file/3ecbf785b17516426d78b1089e8bbefe/dateie8F312N5ph/Vile.2011.DVDRip.SingL.rar.htm
http://extabit.com/file/2cq28139adrx8/Vile.2011.DVDRip.SingL.rar
http://rapidgator.net/file/41510115/Vile.2011.DVDRip.SingL.rar.html
RobertoWarez is offline   Reply With Quote
Post New Thread  Reply

Tags
2011, dvdrip, vile, xvidprimor

Thread Tools
Display Modes

Posting Rules
You may not post new threads
You may not post replies
You may not post attachments
You may not edit your posts

BB code is On
Smilies are On
[IMG] code is On
HTML code is Off
Trackbacks are On
Pingbacks are On
Refbacks are On




Powered by vBulletin® Version 3.8.6
Copyright ©2000 - 2010, Jelsoft Enterprises Ltd.

Powered by ForumWizard